#TITLE:CHEER TRAIN XD;
#SUBTITLE:;
#ARTIST:DJ Potatoe;
#TITLETRANSLIT:;
#SUBTITLETRANSLIT:;
#ARTISTTRANSLIT:;
#CREDIT:;
#BANNER:Cheer Train XD-banner.png;
#BACKGROUND:Cheer Train XD-bg.png;
#LYRICSPATH:;
#CDTITLE:;
#MUSIC:Cheer Train XD.mp3;
#MUSICLENGTH:97.026;
#OFFSET:-0.080;
#SAMPLESTART:12.005;
#SAMPLELENGTH:12.000;
#SELECTABLE:YES;
#BPMS:0.000=120.000;
#STOPS:;
#BGCHANGES:;
#FIRSTBEAT:16.000;

#LASTBEAT:194.000;

#SONGFILENAME:Songs/ERICth The 3rd/Cher Train xd/Cheer Train.sm;

#HASMUSIC:1;

#HASBANNER:1;


//---------------dance-single - MANIAC----------------
#NOTES:
     dance-single:
     MANIAC:
     hard:
     7:
     0.501,0.500,0.021,0.103,0.309,328.000,2.000,10.000,0.000,0.000:



0000
0000
0000
0000
,
0000
0000
0000
0000
,
0000
0000
0000
0000
,
0000
0000
0000
0000
,
0100
0100
0010
0010
0001
0001
1000
1000
,
0010
0000
0010
0000
0001
0000
0001
0000
0010
0000
0000
1000
0000
0000
0100
0000
,
0010
0010
0001
0001
1000
1000
0100
0100
,
0001
0000
0001
0000
0100
0000
0100
0000
1000
0000
0000
0001
0000
0000
1000
0000
,
0100
0000
0010
0000
0001
0100
0000
0100
0001
0000
1000
0000
0100
0010
0000
0010
,
0100
0000
0001
0000
0100
1000
0000
1000
0100
0000
0000
0001
0000
0000
0100
0000
,
1000
0000
0010
0000
1000
0010
0000
0010
1000
0000
0001
0000
0010
0001
0000
0001
,
0010
0000
0100
0000
0010
0100
0000
0100
0010
0000
0000
0010
0000
0000
0010
0000
,
0100
0000
0010
0000
0001
0100
0000
0100
0001
0000
1000
0000
0100
0010
0000
0010
,
0100
0000
0001
0000
0100
1000
0000
1000
0100
0000
0000
0001
0000
0000
0100
0000
,
1000
0000
0010
0000
1000
0010
0000
0010
1000
0000
0001
0000
0010
0001
0000
0001
,
0010
0000
0100
0000
0010
0100
0000
0100
0010
0000
0000
0010
0000
0000
0010
0000
,
1000
0100
0010
0001
1000
0100
0010
0001
,
1000
0100
0010
0001
1000
0100
0010
0001
,
0010
0100
1000
0001
0010
0100
1000
0001
,
0010
0100
1000
0001
0010
0100
1000
0001
,
0010
0100
0010
0100
0010
0100
0010
0100
,
0001
0100
1000
0001
0010
1000
0001
0100
,
1000
0001
0010
1000
0001
0100
1000
0000
,
1000
0000
0000
0000
1100
0000
0000
0000
0001
0000
0000
0001
0000
0000
0001
0000
,
2000
0010
0000
0010
0000
0010
0000
0001
,
3020
0100
0000
0100
0000
0100
0000
1000
,
0230
0001
0000
1000
0000
0001
0000
0010
,
0302
0100
0000
0100
0000
0100
0000
1000
,
2003
0000
0000
0010
0000
0010
0000
0100
,
3200
0000
0000
0001
0000
0001
0000
0010
,
0320
0000
0000
1000
0000
1000
0000
0001
,
0032
0000
0000
0003
,
0100
0100
0010
0010
0001
0001
1000
1000
,
0010
0000
0010
0000
0001
0000
0001
0000
0010
0000
0000
1000
0000
0000
0100
0000
,
0010
0010
0001
0001
1000
1000
0100
0100
,
0001
0000
0001
0000
0100
0000
0100
0000
1000
0000
0000
0001
0000
0000
0100
0000
,
0100
0100
0010
0010
0001
0001
1000
1000
,
0010
0000
0010
0000
0001
0000
0001
0000
0010
0000
0000
1000
0000
0000
0100
0000
,
0010
0010
0001
0001
1000
1000
0100
0100
,
0001
0000
0001
0000
0100
0000
0100
0000
1000
0000
0000
0001
0000
0000
1000
0000
,
0100
0000
0010
0000
0001
0100
0000
0100
0001
0000
1000
0000
0100
0010
0000
0010
,
0100
0000
0001
0000
0100
1000
0000
1000
0100
0000
0000
0001
0000
0000
0100
0000
,
1000
0000
0010
0000
1000
0010
0000
0010
1000
0000
0001
0000
0010
0001
0000
0001
,
0010
0000
0100
0000
0010
0100
0000
0100
0010
0000
0000
0010
0000
0000
0010
0000
,
0100
0000
0010
0000
0001
0100
0000
0100
0001
0000
1000
0000
0100
0010
0000
0010
,
0100
0000
0001
0000
0100
1000
0000
1000
0100
0000
0000
0001
0000
0000
0100
0000
,
1000
0000
0010
0000
1000
0010
0000
0010
1000
0000
0001
0000
0010
0000
0000
0000
,
0001
0000
0001
0000
0001
0000
0001
0000
1000
0100
1000
0100
1000
0000
0001
0000
,
0202
0000
0303
0000;

//---------------dance-single - ANOTHER----------------
#NOTES:
     dance-single:
     ANOTHER:
     medium:
     4:
     0.320,0.347,0.052,0.072,0.000,205.000,5.000,7.000,0.000,0.000:



0000
0000
0000
0000
,
0000
0000
0000
0000
,
0000
0000
0000
0000
,
0000
0000
0000
0000
,
0010
0010
0001
0001
,
0100
0100
0010
0010
,
1000
1000
0010
0010
,
1000
1000
0001
0001
,
1000
0100
0010
0000
0100
0000
0100
0000
,
0010
0100
1000
0000
0001
0000
0001
0000
,
0010
0001
0100
0000
0001
0000
0001
0000
,
0100
0001
0010
0000
0100
0000
0100
0000
,
0010
1000
0001
0000
0010
0001
1000
0000
,
0010
1000
0001
0000
0010
0001
1000
0000
,
0010
1000
0001
0000
0010
0001
1000
0000
,
0001
0000
0001
0000
0001
1000
1000
0000
,
0100
0010
0100
0010
,
0001
0000
1000
0000
0001
1000
0001
1000
,
0010
0100
0010
0100
,
0001
0000
1000
0000
0010
1000
0001
1000
,
1000
0100
0010
0000
1000
0100
0010
0000
,
1000
0100
0010
0000
1000
0100
0010
0000
,
1000
0100
0010
0000
1000
0100
0010
0000
,
1000
0200
0310
0000
0010
0010
0010
0000
,
0001
1000
0100
0010
,
0001
0100
0010
1000
,
0001
0100
0010
0100
,
0001
0000
1000
0000
0010
0010
0100
0100
,
0001
1000
0010
1000
,
0100
0010
0100
0001
,
1000
0010
0100
0001
,
2002
0000
0000
0000
0000
3003
0110
0000
,
1001
0100
0010
0001
,
0100
0000
0010
0000
1000
0010
1000
0010
,
1000
0001
0010
0001
,
0100
0000
1000
0000
0001
0010
0001
0010
,
0001
0100
0010
1000
,
0010
0000
1000
0000
0100
1000
0100
1000
,
0001
0010
0010
1000
,
0001
0000
0100
0000
0100
0001
0100
0001
,
0100
1000
0010
0010
,
0100
0001
0010
0010
,
0100
1000
0010
0010
,
0100
0001
0010
0010
,
2000
0010
0010
0010
,
0010
0000
0010
0000
0010
0000
0010
3000
,
0002
0000
1000
0000
1000
0000
1000
0003
,
1001
0000
0000
0000
,
2002
3003
0000
0000
0000
0000
0000
0000;

//---------------dance-single - BASIC----------------
#NOTES:
     dance-single:
     BASIC:
     easy:
     2:
     0.149,0.247,0.052,0.082,0.000,88.000,5.000,8.000,0.000,0.000:



0000
0000
0000
0000
,
0000
0000
0000
0000
,
0000
0000
0000
0000
,
0000
0000
0000
0000
,
0010
0000
0000
0000
,
0100
0000
0000
0000
,
0100
0000
0000
0000
,
0010
0000
0000
0000
,
0100
0000
0010
0000
,
0001
0000
1000
0000
,
0100
0000
0010
0000
,
0001
0000
1000
0000
,
0100
0000
0010
0000
,
0001
0000
1000
0000
,
0100
0000
0010
0000
,
0001
0000
1000
0000
,
0010
0000
0100
0000
,
1000
0000
1000
0000
,
0010
0000
0100
0000
,
1000
0000
1000
0000
,
0010
0000
0100
0000
,
1000
0000
1000
0000
,
0010
0000
0100
0000
,
1000
0000
1000
0000
,
0020
0000
0000
0000
,
0032
0000
0000
0000
,
0203
0000
0000
0000
,
2300
0000
0000
0000
,
3002
0000
0000
0000
,
2003
0000
0000
0000
,
3002
0000
0000
0000
,
2003
0000
0000
0000
,
3010
0010
0010
0010
,
0100
0100
0100
0100
,
0001
0001
0001
0001
,
1000
1000
1000
1000
,
0010
0010
0100
0100
,
0010
0010
0100
0100
,
0001
0001
0001
0001
,
0001
0001
0001
1000
,
1001
0000
0000
0000
,
0011
0000
0000
0000
,
0100
0000
0000
0010
,
0100
0000
0000
0010
,
0100
0000
0000
0010
,
0100
0000
0000
0000
,
1010
0000
0000
0000
,
0101
0000
0000
0000
,
1001
0000
0000
0000;
